<?xml version="1.0" standalone="no"?>
<!DOCTYPE svg PUBLIC "-//W3C//DTD SVG 1.1//EN" "http://www.w3.org/Graphics/SVG/1.1/DTD/svg11.dtd" >
<svg xmlns="http://www.w3.org/2000/svg" xmlns:xlink="http://www.w3.org/1999/xlink" version="1.1">
<metadata>
Created by FontForge 20150318 at Wed May 20 14:57:01 2015
 By uniteet7
</metadata>
<defs>
<font id="fbfont" horiz-adv-x="512" >
  <font-face 
    font-family="fbfont"
    font-weight="400"
    font-stretch="normal"
    units-per-em="512"
    panose-1="0 0 0 0 0 0 0 0 0 0"
    ascent="480"
    descent="-32"
    bbox="-27 -32.5625 614 481"
    underline-thickness="0"
    underline-position="0"
    unicode-range="U+0001-E823"
  />
<missing-glyph horiz-adv-x="0" 
 />
    <glyph glyph-name=".notdef" horiz-adv-x="0" 
 />
    <glyph glyph-name=".null" horiz-adv-x="0" 
 />
    <glyph glyph-name="nonmarkingreturn" horiz-adv-x="170" 
 />
    <glyph glyph-name="NULL" horiz-adv-x="0" 
 />
    <glyph glyph-name="NULL" horiz-adv-x="0" 
 />
    <glyph glyph-name="uni0001" horiz-adv-x="0" 
 />
    <glyph glyph-name="space" unicode=" " horiz-adv-x="256" 
 />
    <glyph glyph-name="uniE800" unicode="&#xe800;" 
d="M256 480q53 0 99.5 -20t81.5 -55t55 -81.5t20 -99.5t-20 -99.5t-55 -81.5t-81.5 -55t-99.5 -20t-99.5 20t-81.5 55t-55 81.5t-20 99.5t20 99.5t55 81.5t81.5 55t99.5 20zM288 112q0 3 -1.5 6t-3.5 5t-5 3.5t-6 1.5h-32q-3 0 -6 -1.5t-5 -3.5t-3.5 -5t-1.5 -6v-32
q0 -3 1.5 -6t3.5 -5t5 -3.5t6 -1.5h32q3 0 6 1.5t5 3.5t3.5 5t1.5 6v32zM288 198q13 4 25 13t20 21t13.5 26t4.5 30q1 20 -7 37.5t-20.5 30.5t-30.5 20.5t-37 7.5t-34.5 -6t-28.5 -17t-21 -25.5t-12 -31.5q1 -3 1 -6t2 -5t5 -3.5t8 -1.5h31q6 0 8.5 2t5 4.5t2.5 5t1 4.5
q-1 3 1 6t3.5 5t5 3.5t5.5 1.5h33q2 0 5.5 -1.5t5 -3.5t3.5 -5t1 -6l1 -32l-2 -6t-3.5 -5t-5 -3.5t-6.5 -1.5h-23q-8 0 -12.5 -2.5t-7 -7t-3.5 -10t-1 -12.5v-48q0 -3 1.5 -6t3.5 -5t5 -3.5t6 -1.5h32q3 0 6 1.5t5 3.5t3.5 5t1.5 6v22z" />
    <glyph glyph-name="uniE801" unicode="&#xe801;" horiz-adv-x="546" 
d="M68 106l410 -1v66v6t1 6.5t2.5 5.5t4.5 4l47 39q3 1 5 2.5t4 0t3 -3.5t1 -6v-222q0 -8 -2.5 -13.5t-7.5 -11t-11 -7.5t-13 -3l-478 1q-7 -1 -13 2t-11 7.5t-7.5 11t-2.5 12.5v342q0 7 2.5 13.5t7.5 10.5t11 7.5t13 2.5l112 1q3 -1 5.5 -2t3 -3t0 -4t-2.5 -6q-3 -4 -6 -9
t-6 -9.5t-5.5 -10t-5.5 -9.5q-1 -4 -3.5 -6.5t-6 -5t-7 -3.5t-7.5 -2l-37 1v-205v1zM189 156q-2 -5 -3.5 -6t-3 -1.5t-3 2t-2.5 4.5q-1 7 -2.5 13t-2 13t-1 13t-0.5 14q0 41 16 79t43.5 65.5t65 44t79.5 15.5v48q0 7 2.5 12.5t6.5 7t9 0.5t11 -7l136 -116q3 -4 4.5 -6.5
t1.5 -6.5t-1.5 -6.5t-4.5 -5.5l-136 -117q-6 -6 -11 -7t-9 0.5t-6.5 7t-2.5 12.5v48q-35 11 -64.5 5t-53 -25.5t-40.5 -45.5t-28 -55v1z" />
    <glyph glyph-name="uniE802" unicode="&#xe802;" 
d="M0 448q0 7 2.5 12.5t7 10t10 7t12.5 2.5h160q7 0 12.5 -2.5t10 -7t7 -10t2.5 -12.5v-160q0 -7 -2.5 -12.5t-7 -10t-10 -7t-12.5 -2.5h-160q-7 0 -12.5 2.5t-10 7t-7 10t-2.5 12.5v160zM192 192q7 0 12.5 -2.5t10 -7t7 -10t2.5 -12.5v-160q0 -7 -2.5 -12.5t-7 -10t-10 -7
t-12.5 -2.5h-160q-7 0 -12.5 2.5t-10 7t-7 10t-2.5 12.5v160q0 7 2.5 12.5t7 10t10 7t12.5 2.5h160zM480 192q7 0 12.5 -2.5t10 -7t7 -10t2.5 -12.5v-160q0 -7 -2.5 -12.5t-7 -10t-10 -7t-12.5 -2.5h-160q-7 0 -12.5 2.5t-10 7t-7 10t-2.5 12.5v160q0 7 2.5 12.5t7 10t10 7
t12.5 2.5h160zM480 480q7 0 12.5 -2.5t10 -7t7 -10t2.5 -12.5v-160q0 -7 -2.5 -12.5t-7 -10t-10 -7t-12.5 -2.5h-160q-7 0 -12.5 2.5t-10 7t-7 10t-2.5 12.5v160q0 7 2.5 12.5t7 10t10 7t12.5 2.5h160z" />
    <glyph glyph-name="uniE803" unicode="&#xe803;" horiz-adv-x="514" 
d="M58 422q29 28 65 43t74 14.5t74.5 -14.5t65.5 -44q25 -23 39 -54t17.5 -63t-3.5 -65t-24 -60l133 -130q7 -6 10.5 -15.5t4 -18t-3 -17.5t-10.5 -15q-6 -8 -14.5 -11.5t-17.5 -4t-17.5 3t-15.5 9.5l-136 133q-29 -18 -61 -24t-64 -3t-62 17.5t-54 38.5q-29 30 -43.5 66
t-14.5 74.5t14.5 74.5t43.5 65zM114 365q-17 -16 -26 -38.5t-9 -44.5t9 -44t26 -39q17 -18 39 -26t44.5 -8.5t44 8.5t39.5 25q17 19 26 40t9 44t-9 44.5t-26 39.5q-18 16 -39.5 25.5t-44 9t-44.5 -9t-39 -26.5z" />
    <glyph glyph-name="uniE804" unicode="&#xe804;" 
d="M57 465h397q12 0 22.5 -4.5t18 -12t12 -18t4.5 -22.5q0 -11 -4.5 -21.5t-12 -18t-18 -12t-22.5 -4.5h-397q-12 0 -22.5 4.5t-18 12t-12 18t-4.5 21.5q0 12 4.5 22.5t12 18t18 12t22.5 4.5v0zM58 278h397q12 0 22.5 -4.5t18 -12t12 -18t4.5 -21.5q0 -12 -4.5 -22.5
t-12 -18t-18 -12t-22.5 -4.5h-397q-12 0 -22.5 4.5t-18 12t-12 18t-4.5 22.5q0 11 4.5 21.5t12 18t18 12t22.5 4.5v0zM57 91h398q11 0 21.5 -4.5t18 -12t12 -18t4.5 -21.5q0 -12 -4.5 -22t-12 -18t-18 -12t-21.5 -4h-398q-12 0 -22 4t-18 12t-12.5 18t-4.5 22q0 11 4.5 21.5
t12.5 18t18 12t22 4.5v0z" />
    <glyph glyph-name="uniE805" unicode="&#xe805;" horiz-adv-x="383" 
d="M191 75l-161 -102q-6 -4 -12 -5t-9.5 1t-6.5 6.5t-2 10.5l-1 453q1 6 4 13.5t10 13.5t16 10t21 4h285q13 0 21 -3t14.5 -8.5t9 -13t3.5 -16.5l-1 -453q1 -6 -2 -10.5t-7 -6.5t-10 -1t-11 5l-162 102h1z" />
    <glyph glyph-name="uniE806" unicode="&#xe806;" horiz-adv-x="307" 
d="M300 243q4 -4 5.5 -8.5t1.5 -9.5t-1.5 -10t-5.5 -9l-223 -230q-3 -4 -7.5 -6t-9.5 -2t-9.5 2t-8.5 6l-35 36q-3 4 -5 9t-2 10t2 9.5t5 8.5l170 176l-168 174q-4 4 -6 8.5t-2 9.5t2 10t6 9l35 36q3 4 7.5 6t9.5 2t9.5 -2t8.5 -6z" />
    <glyph glyph-name="uniE807" unicode="&#xe807;" horiz-adv-x="538" 
d="M290 83q-4 -4 -8.5 -5.5t-9.5 -1.5t-10 1.5t-9 5.5l-231 223q-3 3 -5 7.5t-2 9.5t2 9.5t5 8.5l37 35q4 3 8.5 5t9.5 2t10 -2t9 -5l176 -170l174 168q4 4 8.5 5.5t9.5 1.5t10 -1.5t9 -5.5l36 -35q4 -3 6 -7.5t2 -9.5t-2 -9.5t-6 -8.5z" />
    <glyph glyph-name="uniE808" unicode="&#xe808;" 
d="M480 480q7 0 12.5 -2.5t10 -7t7 -10t2.5 -12.5v-448q0 -7 -2.5 -12.5t-7 -10t-10 -7t-12.5 -2.5h-448q-7 0 -12.5 2.5t-10 7t-7 10t-2.5 12.5v448q0 7 2.5 12.5t7 10t10 7t12.5 2.5h448zM192 144q0 3 -1.5 6t-3.5 5t-5 3.5t-6 1.5h-32q-3 0 -6 -1.5t-5 -3.5t-3.5 -5
t-1.5 -6v-32q0 -3 1.5 -6t3.5 -5t5 -3.5t6 -1.5h32q3 0 6 1.5t5 3.5t3.5 5t1.5 6v32zM192 240q0 3 -1.5 6t-3.5 5t-5 3.5t-6 1.5h-32q-3 0 -6 -1.5t-5 -3.5t-3.5 -5t-1.5 -6v-32q0 -3 1.5 -6t3.5 -5t5 -3.5t6 -1.5h32q3 0 6 1.5t5 3.5t3.5 5t1.5 6v32zM192 336q0 3 -1.5 6
t-3.5 5t-5 3.5t-6 1.5h-32q-3 0 -6 -1.5t-5 -3.5t-3.5 -5t-1.5 -6v-32q0 -3 1.5 -6t3.5 -5t5 -3.5t6 -1.5h32q3 0 6 1.5t5 3.5t3.5 5t1.5 6v32zM384 144q0 3 -1.5 6t-3.5 5t-5 3.5t-6 1.5h-128q-3 0 -6 -1.5t-5 -3.5t-3.5 -5t-1.5 -6v-32q0 -3 1.5 -6t3.5 -5t5 -3.5t6 -1.5
h128q3 0 6 1.5t5 3.5t3.5 5t1.5 6v32zM384 240q0 3 -1.5 6t-3.5 5t-5 3.5t-6 1.5h-128q-3 0 -6 -1.5t-5 -3.5t-3.5 -5t-1.5 -6v-32q0 -3 1.5 -6t3.5 -5t5 -3.5t6 -1.5h128q3 0 6 1.5t5 3.5t3.5 5t1.5 6v32zM384 336q0 3 -1.5 6t-3.5 5t-5 3.5t-6 1.5h-128q-3 0 -6 -1.5
t-5 -3.5t-3.5 -5t-1.5 -6v-32q0 -3 1.5 -6t3.5 -5t5 -3.5t6 -1.5h128q3 0 6 1.5t5 3.5t3.5 5t1.5 6v32z" />
    <glyph glyph-name="uniE809" unicode="&#xe809;" horiz-adv-x="448" 
d="M416 480q7 0 12.5 -2.5t10 -7t7 -10t2.5 -12.5v-16q0 -3 -1.5 -6t-3.5 -5t-5 -3.5t-6 -1.5h-336q-7 0 -12.5 -2.5t-10 -7t-7 -10t-2.5 -12.5t2.5 -12.5t7 -10t10 -7t12.5 -2.5h128q7 0 12.5 -2.5t10 -7t7 -10t2.5 -12.5v-152q0 -3 1 -5.5t2.5 -3t4 0t4.5 2.5l36 37
l36 -38q2 -2 4.5 -2.5t4 0t2.5 2.5t1 6v169q0 3 1.5 6t3.5 5t5 3.5t6 1.5h48q7 0 12.5 -2.5t10 -7t7 -10t2.5 -12.5v-320q0 -7 -2.5 -12.5t-7 -10t-10 -7t-12.5 -2.5h-320q-20 0 -37.5 7.5t-30.5 20.5t-20.5 30.5t-7.5 37.5v320q0 20 7.5 37.5t20.5 30.5t30.5 20.5t37.5 7.5
h320v0z" />
    <glyph glyph-name="uniE810" unicode="&#xe810;" horiz-adv-x="615" 
d="M589 275q5 0 9.5 -2t8 -5.5t5.5 -8t2 -9.5v-52q0 -5 -2 -9.5t-5.5 -8t-8 -5.5t-9.5 -2h-410l119 -124q4 -4 6 -8.5t2 -9.5t-2 -10t-6 -9l-35 -36q-3 -4 -7.5 -6t-9.5 -2t-9.5 2t-7.5 6l-222 229q-3 4 -5 8.5t-2 9.5t2 10t5 9l223 230q4 4 8.5 6t9 2t9 -2t8.5 -6l35 -36
q4 -4 5.5 -9t1.5 -10t-1.5 -9.5t-5.5 -8.5l-120 -124h409v0z" />
    <glyph glyph-name="uniE811" unicode="&#xe811;" 
d="M435 160q0 -2 -1 -4.5t-2 -4.5l-2 -4t-2 -5l32 -76l-45 -45l-77 31q-2 -2 -4.5 -2.5t-4.5 -1.5t-4.5 -2t-4.5 -2l-31 -76h-64l-33 76q-2 1 -4.5 1.5t-5 1.5t-4.5 2l-4 2l-76 -31l-45 45l30 76q-1 2 -2 4.5l-2 5l-2 5t-2 4.5l-75 32v64l75 32q1 2 2 4.5l2 5t2 4.5t2 5
l-31 75l45 45l76 -30q3 1 5 2t4.5 2t4.5 1.5t5 1.5l32 76h64l32 -76q2 -1 4.5 -2t4.5 -1.5t4.5 -1.5t4.5 -2l76 31l45 -45l-31 -77q1 -2 2 -4.5t2 -4.5l2 -4t2 -5l76 -32v-64zM256 128q19 0 36.5 7.5t30.5 20.5t21 30.5t8 37.5t-8 37.5t-21 30.5t-30.5 20.5t-36.5 7.5
q-20 0 -37.5 -7.5t-30.5 -20.5t-20.5 -30.5t-7.5 -37.5t7.5 -37.5t20.5 -30.5t30.5 -20.5t37.5 -7.5z" />
    <glyph glyph-name="uniE812" unicode="&#xe812;" 
d="M480 480q7 0 12.5 -2.5t10 -7t7 -10t2.5 -12.5v-448q0 -7 -2.5 -12.5t-7 -10t-10 -7t-12.5 -2.5h-448q-7 0 -12.5 2.5t-10 7t-7 10t-2.5 12.5v448q0 7 2.5 12.5t7 10t10 7t12.5 2.5h448zM160 320h-64v-224h64v224zM128 352q7 0 12.5 2.5t10 7t7 10t2.5 12.5t-2.5 12.5
t-7 10t-10 7t-12.5 2.5t-12.5 -2.5t-10 -7t-7 -10t-2.5 -12.5t2.5 -12.5t7 -10t10 -7t12.5 -2.5zM416 225q0 26 -7 45t-20 30.5t-31.5 16t-42.5 1.5q-11 -2 -20 -6t-16.5 -10.5t-13 -14t-9.5 -15.5v48h-63v-35v-77v-77v-35h63v96q0 12 3.5 23.5t11 20.5t18 14.5t23.5 5.5
q12 0 20 -6t12.5 -15t6 -20.5t1.5 -22.5v-96h64v129z" />
    <glyph glyph-name="uniE813" unicode="&#xe813;" 
d="M480 480q7 0 12.5 -2.5t10 -7t7 -10t2.5 -12.5v-448q0 -7 -2.5 -12.5t-7 -10t-10 -7t-12.5 -2.5h-448q-7 0 -12.5 2.5t-10 7t-7 10t-2.5 12.5v448q0 7 2.5 12.5t7 10t10 7t12.5 2.5h448zM384 288q5 4 9 7.5t8 8l8 9t7 9.5q-4 -2 -8.5 -3.5t-9.5 -3t-9.5 -2.5t-9.5 -1
q5 3 9.5 6.5t8 8t6.5 10t4 10.5q-4 -3 -9 -5t-10.5 -4t-10.5 -3.5t-11 -2.5q-4 4 -9.5 8t-11.5 6.5t-12.5 4t-13.5 1.5q-13 0 -25 -5t-20.5 -14t-14 -20.5t-5.5 -25.5q0 -2 0.5 -3.5t0.5 -3.5t0.5 -4t0.5 -3q-20 1 -39 6t-36 13.5t-31.5 20.5t-26.5 27q-2 -3 -3.5 -7l-3 -8
t-2 -8.5t-0.5 -8.5q0 -9 3.5 -16.5t8.5 -14.5t11.5 -13t12.5 -10q-4 0 -8 0.5t-7 1.5t-5 2.5t-2 3.5v-1q0 -12 3 -22.5t8.5 -18.5t14 -14t19.5 -8q-2 -1 -5 -1.5t-5.5 -0.5h-5.5h-5h-3h-4h-3.5t-3.5 1q3 -10 9 -18t13.5 -14t17 -9.5t20.5 -3.5q-9 -7 -18 -12t-19.5 -8.5
t-21.5 -5.5t-22 -2h-4h-4t-4 0.5t-4 0.5q11 -7 22.5 -12.5t24 -9t26 -5.5t26.5 -2q45 0 79 16.5t57.5 43t35.5 59.5t12 65v2v2v2v2z" />
    <glyph glyph-name="uniE814" unicode="&#xe814;" 
d="M480 480q7 0 12.5 -2.5t10 -7t7 -10t2.5 -12.5v-448q0 -7 -2.5 -12.5t-7 -10t-10 -7t-12.5 -2.5h-448q-7 0 -12.5 2.5t-10 7t-7 10t-2.5 12.5v448q0 7 2.5 12.5t7 10t10 7t12.5 2.5h448zM352 384h-32q-36 0 -55.5 -13t-28.5 -32.5t-10.5 -42t-1.5 -40.5h-64v-64h64v-128
h64v128h64v64h-64q0 24 1 37t4.5 19t10 7t16.5 1h32v64z" />
    <glyph glyph-name="uniE815" unicode="&#xe815;" 
d="M480 480q7 0 12.5 -2.5t10 -7t7 -10t2.5 -12.5v-448q0 -7 -2.5 -12.5t-7 -10t-10 -7t-12.5 -2.5h-448q-7 0 -12.5 2.5t-10 7t-7 10t-2.5 12.5v448q0 7 2.5 12.5t7 10t10 7t12.5 2.5h448zM384 114q-12 -5 -20 -8.5t-15 -6t-12.5 -3.5t-13.5 -1q-4 0 -7.5 -0.5t-7 -0.5
t-6.5 1.5t-7 4.5q-5 4 -6.5 15.5t-1.5 25.5t0.5 28.5t0.5 22.5v64h64v64l-64 -1v97h-73q-1 -7 -2.5 -14t-3.5 -13t-4.5 -11.5t-4.5 -10.5q-3 -5 -5.5 -9.5t-6 -9t-7 -8.5t-7.5 -7q-4 -4 -7 -6.5t-8 -5t-12 -4.5t-19 -4v-57h64v-132v-13t0.5 -11.5t1 -10.5t1.5 -8q2 -4 3 -7
t3 -5.5t4.5 -5.5t5.5 -6q4 -3 7 -5.5t6.5 -5t7.5 -4.5t9 -3q5 -2 10.5 -3.5t11.5 -2t12.5 -1t13.5 -0.5q6 0 12 0.5l12 1t11.5 1t10.5 2.5q5 1 9.5 2t10 3t12.5 4.5t17 6.5v61z" />
    <glyph glyph-name="uniE816" unicode="&#xe816;" 
d="M480 480q7 0 12.5 -2.5t10 -7t7 -10t2.5 -12.5v-448q0 -7 -2.5 -12.5t-7 -10t-10 -7t-12.5 -2.5h-448q-7 0 -12.5 2.5t-10 7t-7 10t-2.5 12.5v448q0 7 2.5 12.5t7 10t10 7t12.5 2.5h448zM77 178q0 -2 0.5 -3t2 -1.5t3 0t2.5 1.5l58 46q1 2 2 3.5t1 3.5t-1 3.5t-2 2.5
l-58 46q-1 1 -2.5 1.5t-3 0.5t-2 -1.5t-0.5 -3.5v-99zM435 118l-97 78l-4 2t-4.5 1t-4.5 -1l-4 -2l-57 -46l-4 -2t-4 -1t-4 1l-4 2l-57 46l-4 2t-4.5 1t-4.5 -1l-4 -2l-97 -78v-10q0 -4 2 -7.5t5 -5.5t7 -3.5t9 -1.5h313q4 0 8 1.5t7 3.5t5 5.5t2 7.5v10zM435 277
q0 2 -0.5 3t-2 1.5t-3 0t-2.5 -1.5l-58 -46q-1 -1 -2 -2.5t-1 -3.5t1 -3.5t2 -3.5l58 -46q1 -1 2.5 -1.5t3 0t2 1.5t0.5 3v99zM435 340q0 4 -2 7.5t-5 5.5t-7 3.5t-8 1.5h-313q-5 0 -9 -1.5t-7 -3.5t-5 -5.5t-2 -7.5v-3l170 -136q2 -2 4 -2.5t4 -0.5t4.5 0.5t3.5 2.5
l172 138v1z" />
    <glyph glyph-name="uniE817" unicode="&#xe817;" 
d="M256 480q53 0 99.5 -20t81.5 -55t55 -81.5t20 -99.5t-20 -99.5t-55 -81.5t-81.5 -55t-99.5 -20t-99.5 20t-81.5 55t-55 81.5t-20 99.5t20 99.5t55 81.5t81.5 55t99.5 20zM300 224l72 73q5 4 7 9.5t2 11.5t-2 11.5t-7 10.5q-4 5 -10 7t-12 2t-11.5 -2t-9.5 -7l-73 -72
l-72 72q-5 5 -10.5 7t-11.5 2t-11.5 -2t-10.5 -7q-4 -5 -6.5 -10.5t-2.5 -11.5t2.5 -11.5t6.5 -9.5l73 -73l-72 -71q-4 -5 -6.5 -10.5t-2.5 -11.5t2.5 -11.5t6.5 -10.5q5 -4 10.5 -6.5t11.5 -2.5t11.5 2.5t10.5 6.5l71 72l73 -73q4 -4 9.5 -6.5t11.5 -2.5t12 2.5t10 6.5
q5 5 7 10.5t2 11.5t-2 11.5t-7 10.5z" />
    <glyph glyph-name="uniE818" unicode="&#xe818;" 
d="M217 175q5 -4 9.5 -7t7.5 -6t5.5 -6.5t2.5 -6.5q1 -1 1 -2t0.5 -2t0 -2t0.5 -2q-1 -10 -4 -17t-11 -12t-18 -7.5t-26 -2.5q-9 0 -19 3t-16.5 8.5t-11 13t-3.5 15.5q-1 8 4 15t12.5 12.5t18 9t20.5 3.5h2q2 0 5 -0.5t4.5 -1t4.5 -1t4 -0.5q2 -1 2.5 -1.5t1.5 -1t1.5 -1
t1.5 -0.5zM196 254h-1q-7 0 -14.5 4t-12.5 11t-9.5 15.5t-4.5 18.5q-2 6 -1.5 11t1.5 9.5t3.5 8.5t3.5 7q3 2 4.5 4t4.5 3l4.5 1.5t5.5 0.5v0q8 -1 14.5 -4.5t12.5 -10.5t9.5 -15.5t6.5 -18.5q-1 -6 -0.5 -11t-1 -10t-3 -9t-5.5 -7q-1 -2 -3.5 -3.5t-4 -2.5t-4.5 -1.5
t-5 -0.5q-1 0 -0.5 0t0 0t0 0t-0.5 0h1zM479 480q8 0 13 -2.5t10 -7t7 -10t3 -12.5l-1 -448q1 -7 -2 -12.5t-7 -10t-10 -7t-12 -2.5h-449q-6 0 -12 2.5t-10 7t-7 10t-2 12.5l-1 448q1 7 3 12.5t7 10t10 7t13 2.5h447zM223 79q12 4 23 10.5t18.5 15t12 19t3.5 21.5
q1 10 -1.5 19t-6 16.5t-10.5 14.5t-15 13q-5 3 -8.5 6t-6.5 6.5t-4.5 6t-2.5 3.5q1 2 1 4t2 4t4.5 5t8.5 7l11 11t9 12.5t5 13.5t1 15q1 6 -0.5 12.5t-2.5 12t-4.5 10.5t-5.5 9h6h2h1t1 0.5t1 0.5l19 14q2 1 2 2t1 2t0.5 2t0.5 2q-2 1 -2 2t-1.5 1.5t-2 1t-2.5 0.5h-88
q-4 0 -7.5 -0.5t-7.5 -1t-7 -1.5t-8 -2q-11 -4 -21.5 -11t-17.5 -16t-11.5 -19t-3.5 -21q-1 -15 5 -28t15 -22.5t23 -15t29 -5.5q0 -1 -0.5 -2.5t-0.5 -2.5t-0.5 -2t0.5 -3q-1 -2 0 -4t1 -4.5t1.5 -4.5t1.5 -4q1 0 0.5 0h-0.5h-0.5t0.5 0q-16 0 -29.5 -3.5t-25.5 -10
t-20.5 -15.5t-14.5 -20q0 -2 -1.5 -5t-1.5 -6t-1 -5.5t0 -5.5q-1 -3 0 -5.5t1 -5t1.5 -5t1.5 -5.5q5 -6 9.5 -11t11.5 -9t14.5 -7.5t17.5 -5.5q4 -1 9.5 -2t10 -1.5t10 -1t10.5 -0.5t9.5 0.5t9.5 1t9 1.5t9 2zM422 230l1 15q-1 1 -1 2.5t-1.5 2t-2 1.5t-3.5 0l-49 1l-1 50
q1 2 0 3t-1.5 2t-2.5 1.5t-2 1.5l-16 -1q0 1 -2 0t-2 -1.5t-1.5 -2t-0.5 -2.5l-1 -51h-49q-2 0 -3 -0.5t-2.5 -1.5t-1.5 -2t-1 -3l1 -14q-1 -2 0 -3t1.5 -2t2.5 -1.5l2 -0.5h51l-1 -50l1.5 -3t1.5 -2t2 -1.5t3 -0.5h14q2 0 3 0.5t2.5 1.5t1.5 2t1 3l-1 50h51q1 0 2.5 0.5
t2 1.5t1.5 2t0 3v-1z" />
    <glyph glyph-name="uniE819" unicode="&#xe819;" 
d="M512 0q0 -7 -2.5 -12.5t-7 -10t-10 -7t-12.5 -2.5h-448q-7 0 -12.5 2.5t-10 7t-7 10t-2.5 12.5v448q0 7 2.5 12.5t7 10t10 7t12.5 2.5h448q7 0 12.5 -2.5t10 -7t7 -10t2.5 -12.5v-448zM282 298q0 7 -2.5 11.5t-6 7.5t-8.5 4.5t-11 1.5l-18 -1q-7 0 -13.5 -1t-11.5 -4
t-8 -6.5t-5 -8.5q-1 -2 -0.5 -3.5t1 -2.5t2 -2t2.5 -1q4 -1 6.5 -1.5t4 -1.5t2 -3t0.5 -5v-55l-1 -3q-1 -1 -2 -1.5l-2 -1t-2 0t-1 2.5l-1 1q-6 9 -11.5 17.5t-10.5 18.5t-9.5 20.5t-8.5 23.5q0 1 -0.5 2t-1.5 1.5l-2 1t-2 0.5h-47h-5.5t-4.5 -1t-3.5 -2.5t-3.5 -4.5
q-1 -2 -1.5 -4t-0.5 -4t0.5 -4.5t0.5 -4.5l1 -1q13 -37 28.5 -68.5t33 -55.5t37 -37.5t40.5 -13.5h31h4q3 0 5 1.5t4 3.5t3 4t1 4l1 6l6 27l1 1l1 -1l0.5 -0.5l1 -1l1 -1l0.5 -0.5l27 -34l3 -4q1 -1 3 -2.5t4 -2l4 -1t4 0.5v0h49h5q2 0 4.5 0.5t4 1.5t3.5 2t3 2q2 3 3 5.5
t1.5 5.5t-0.5 6t-3 5l-47 59q-1 1 -1.5 2.5t-0.5 3t0.5 3t2.5 3.5q5 8 13 18t16 20.5t14.5 22t8.5 22.5v0.5v0.5v0.5v0.5q-1 1 -1 2v2.5t-0.5 3t-1.5 3.5l-1.5 1.5l-1.5 1.5l-1.5 1.5t-2.5 0.5q0 1 -0.5 1h-1h-0.5h-1h-52h-1.5h-0.5h-0.5h-0.5q-1 -1 -3.5 -2t-5 -2.5
t-4.5 -4t-3 -4.5q0 -1 -0.5 -1h-0.5v-0.5v-0.5q-1 -5 -4.5 -13t-9 -16.5t-12 -18t-12.5 -17.5q-1 -3 -2.5 -4t-3 -1.5t-3 -0.5t-2.5 1h-1v73z" />
    <glyph glyph-name="uniE820" unicode="&#xe820;" 
d="M158 451h3.5h3.5h3.5h3.5h14h14h14h14h6.5h7h7h7.5h14h14h14h14h7.5h7h7h6.5h3.5h3.5h3.5h3.5q6 0 8.5 -0.5t4 -1.5t1.5 -4v-8v-3.5v-3.5v-4v-3v-4v-3.5v-3.5v-3v-7.5v-7v-7v-6.5v-4v-3.5v-3.5v-3h7.5h7h7h6.5h7.5h7h7h6.5h4h3.5h3.5h3h4h3.5h3.5h3h3.5h3.5h4h3
q6 0 8.5 -0.5t4 -2t1.5 -4v-7.5v-7.5v-7v-7v-6.5q0 -5 -0.5 -8t-1.5 -4.5t-3.5 -2t-8.5 -0.5l-2.5 0.5t-4.5 0.5h-4t-3 -1v-2.5v-3.5v-4v-4v-3v-3.5v-3.5v-4v-3v-3.5v-3.5v-4v-3v-3.5v-3.5v-4v-6.5v-7v-7v-7.5v-3v-3.5v-3.5v-4v-14v-14v-14v-14v-6.5v-7v-7v-7.5v-6.5v-7v-7
v-7.5v-6.5v-7v-7v-7.5v-3.5v-3.5v-3.5v-3.5v-7.5v-7v-7v-6.5v-3v-4v-4v-3v-8t-1.5 -4.5t-4.5 -1.5h-8h-14h-14h-14h-14h-6.5h-7h-7h-7.5h-3.5h-3.5h-3.5h-3.5h-6.5h-7h-7h-7.5h-6.5h-7h-7h-7.5h-3.5h-3.5h-3.5h-3.5h-7.5h-7h-7h-6.5h-3.5h-3.5h-3.5h-3.5h-7.5h-7h-7h-6.5
h-7.5h-7h-7h-6.5h-14h-14h-14h-14h-7.5h-7h-7h-6.5h-4h-3.5h-3.5h-3h-8.5t-4 1.5t-1.5 4.5v8v3v4v4v3q-1 2 -1 3.5v3.5t0.5 3.5t0.5 3.5v3.5v3.5v3.5v3.5v7v7.5v7v6.5v3.5v3.5v3.5v3.5v7.5v7v7v6.5v7.5v7v7v6.5v7.5v7v7v6.5v3.5v3.5v3.5v3.5v7.5v7v7v6.5v4v3.5v3.5v3v7.5v7
v7v6.5v7.5v7v7v6.5v3.5v4v4v2.5q-1 1 -3 1h-4t-4.5 -0.5l-2.5 -0.5q-6 1 -8.5 1t-4 1.5t-1.5 4v8.5v6.5v7v7v7.5v8t1.5 4t4 1.5t8.5 0.5q1 0 3 -0.5t4 -0.5h3.5t3.5 1h3h3.5h3.5h4h3h3.5h3.5h4h14h14h14h14v6.5v7v7v7.5v3v3.5v3.5v4v6.5v7v7v7.5q-1 5 -0.5 8t1.5 4t4 1.5
t9 0.5zM284 395h-3.5h-3.5h-3.5h-3.5h-6.5h-7h-7h-7.5h-3.5h-3.5h-3.5h-3.5h-7.5h-7h-7h-6.5v-7.5v-7v-7v-6.5h6.5h7h7h7.5h3.5h3.5h3.5h3.5h7h7h7h6h4h3.5h3.5h4h7h7h7h6q1 3 0.5 6.5t0 7t0 7t0.5 7.5h-7h-7h-7h-8h1zM172 282q-1 -3 -0.5 -6.5t0 -7t0 -7t-0.5 -7.5
q1 -3 0.5 -6.5t0 -7t0 -7t0.5 -7.5q-1 -1 -0.5 -3t0 -3.5t0 -3.5t-0.5 -4q1 -3 0.5 -6.5t0 -7t0 -7t0.5 -7.5q-1 -7 -0.5 -14t0 -14t0 -14t-0.5 -14q1 -2 0.5 -3.5t0 -3.5t0 -3.5t0.5 -3.5q-1 -3 -0.5 -6.5t0 -7t0 -7t-0.5 -7.5h7h7h7h8h6h7h7h7q1 4 0.5 7.5t0 7t0 7
t0.5 6.5q-1 4 -0.5 7.5t0 7t0 7t-0.5 6.5q1 2 0.5 3.5t0 3.5t0 3.5t0.5 3.5q-1 4 -0.5 7.5t0 7t0 7t-0.5 6.5q1 7 0.5 14t0 14t0 14t0.5 14q-1 2 -0.5 4t0 3.5t0 3.5t-0.5 3q1 4 0.5 7.5t0 7t0 7t0.5 6.5h-8h-7h-7h-7h-7h-7h-7h-6zM283 282q1 -3 0.5 -6.5t0 -7t0 -7
t0.5 -7.5q-1 -3 -0.5 -6.5t0 -7t0 -7t-0.5 -7.5q1 -1 0.5 -3t0 -3.5t0 -3.5t0.5 -4q-1 -3 -0.5 -6.5t0 -7t0 -7t-0.5 -7.5q1 -7 0.5 -14t0 -14t0 -14t0.5 -14q-1 -2 -0.5 -3.5t0 -3.5t0 -3.5t-0.5 -3.5q1 -3 0.5 -6.5t0 -7t0 -7t0.5 -7.5h7h7h7h6h8h7h7h7q-1 4 -0.5 7.5t0 7
t0 7t-0.5 6.5q1 4 0.5 7.5t0 7t0 7t0.5 6.5q-1 2 -0.5 3.5t0 3.5t0 3.5t-0.5 3.5q1 4 0.5 7.5t0 7t0 7t0.5 6.5q-1 7 -0.5 14t0 14t0 14t-0.5 14q1 2 0.5 4t0 3.5t0 3.5t0.5 3q-1 4 -0.5 7.5t0 7t0 7t-0.5 6.5h-6h-7h-7h-7h-7h-7h-7h-8z" />
    <glyph glyph-name="uniE821" unicode="&#xe821;" 
d="M147 -17q-14 14 -14 34t14 34t34 14t34 -14t14 -34t-14 -34t-34 -14t-34 14zM339 -17q-14 14 -14 34t14 34t34 14t34 -14t14 -34t-14 -34t-34 -14t-34 14zM453 353q13 0 23 -10q9 -9 9 -22q-1 -2 -2 -7t-2 -8q-6 -23 -22 -87t-24 -98q-3 -11 -12 -18q-9 -6 -19 -6h-241
q-22 1 -30 24q-10 36 -29 116q-18 80 -28 116h-87q-6 0 -11 4q-5 5 -5 12v32q0 7 5 11q5 5 11 5h112q1 0 4 -1q19 -3 27 -23q2 -12 9 -40h312zM411 289h-253q3 -13 8 -38q15 -62 22 -90h191z" />
    <glyph glyph-name="uniE822" unicode="&#xe822;" 
d="M150 -17q-14 14 -15 34q1 20 14 34q15 14 34 14q21 0 34 -14q15 -14 14 -34q1 -20 -14 -34q-13 -14 -34 -14q-19 0 -33 14zM343 -17q-16 14 -15 34q-1 20 14 34q13 14 34 14q19 0 34 -14q13 -14 14 -34q-1 -20 -14 -34q-15 -14 -34 -14q-21 0 -33 14zM455 353
q14 0 23 -10q10 -9 9 -22q0 -2 -2 -7q0 -5 -2 -8q-5 -23 -22 -87q-15 -64 -24 -98q-2 -11 -12 -18q-8 -6 -18 -6h-241q-23 1 -30 24q-11 36 -29 116q-19 80 -28 116h-88q-5 0 -11 4q-4 5 -5 12l1 32q-1 7 5 11q4 5 11 5h111q2 0 5 -1q19 -3 26 -23q3 -12 9 -40h313h-1z
M397 227l17 62h-254q3 -9 16 -62h222h-1z" />
    <glyph glyph-name="uniE823" unicode="&#xe823;" 
d="M512 481v-480h-512v480h174v-231h-112l195 -182l193 182h-112v231h174z" />
  </font>
</defs>
</svg>
